神秘盒子
现在可以抽取
道具卡片
现在可以抽取
点击:-  |  回复数:7  |  发表时间:2011-05-01 08:08  |  收藏本帖
楼主 - 发表于:2011-05-01 08:08   ( 阿刀已死,有事烧纸 )
信仰.风
20级神秘
帖子内容隐藏
未登录状态帖子正文不可见。

注册
本帖最近评分记录
  • KFB:+10(my_sorry) 感谢提供文件信息
  • KFB:+352(stel0816) 帖子奖励
  • 1楼 - 发表于:2011-05-01 08:12  
    16
    好吧,我只能说你这用户名够牛叉,捐款支持
    2楼 - 发表于:2011-05-01 08:20  
    2dgal管理
    0级神秘
    果然太早起头晕啊,我是信仰.风,用错ID了
    版本信息:
    C:\Users\acer\Desktop\FLCL (1080P)\[FLCL_OVA][Ep01][BDrip][1080P][X264_AACx3].mp4
      General
          Complete name : C:\Users\acer\Desktop\FLCL (1080P)\[FLCL_OVA][Ep01][BDrip][1080P][X264_AACx3].mp4
          Format : MPEG-4
          Format profile : Base Media
          Codec ID : isom
          File size : 817 MiB
          Duration : 24mn 38s
          Overall bit rate : 4 635 Kbps
          Encoded date : UTC 2010-12-03 09:48:43
          Tagged date : UTC 2010-12-03 09:48:43
      Video #1
          ID : 1
          Format : AVC
          Format/Info : Advanced Video Codec
          Format profile : High@L4.1
          Format settings, CABAC : Yes
          Format settings, ReFrames : 4 frames
          Codec ID : avc1
          Codec ID/Info : Advanced Video Coding
          Duration : 24mn 38s
          Bit rate mode : Variable
          Bit rate : 4 055 Kbps
          Maximum bit rate : 48.1 Mbps
          Width : 1 424 pixels
          Height : 1 064 pixels
          Display aspect ratio : 4:3
          Frame rate mode : Variable
          Frame rate : 23.976 fps
          Minimum frame rate : 23.810 fps
          Maximum frame rate : 48.780 fps
          Color space : YUV
          Chroma subsampling : 4:2:0
          Bit depth : 8 bits
          Scan type : Progressive
          Bits/(Pixel*Frame) : 0.112
          Stream size : 715 MiB (87%)
          Language : Japanese
          Tagged date : UTC 2010-12-03 09:49:13
      Audio #2
          ID : 2
          Format : AAC
          Format/Info : Advanced Audio Codec
          Format version : Version 4
          Format profile : LC
          Format settings, SBR : No
          Codec ID : 40
          Duration : 24mn 38s
          Bit rate mode : Variable
          Bit rate : 192 Kbps
          Maximum bit rate : 260 Kbps
          Channel(s) : 2 channels
          Channel positions : Front: L R
          Sampling rate : 48.0 KHz
          Stream size : 34.1 MiB (4%)
          Language : Japanese
          Encoded date : UTC 2010-12-03 09:49:12
          Tagged date : UTC 2010-12-03 09:49:13
      Audio #3
          ID : 3
          Format : AAC
          Format/Info : Advanced Audio Codec
          Format version : Version 4
          Format profile : LC
          Format settings, SBR : No
          Codec ID : 40
          Duration : 24mn 38s
          Bit rate mode : Variable
          Bit rate : 192 Kbps
          Maximum bit rate : 264 Kbps
          Channel(s) : 2 channels
          Channel positions : Front: L R
          Sampling rate : 48.0 KHz
          Stream size : 34.3 MiB (4%)
          Language : English
          Encoded date : UTC 2010-12-03 09:49:12
          Tagged date : UTC 2010-12-03 09:49:13
      Audio #4
          ID : 4
          Format : AAC
          Format/Info : Advanced Audio Codec
          Format version : Version 4
          Format profile : LC
          Format settings, SBR : No
          Codec ID : 40
          Duration : 24mn 38s
          Bit rate mode : Variable
          Bit rate : 183 Kbps
          Maximum bit rate : 259 Kbps
          Channel(s) : 2 channels
          Channel positions : Front: L R
          Sampling rate : 48.0 KHz
          Stream size : 32.3 MiB (4%)
          Language : Japanese
          Encoded date : UTC 2010-12-03 09:49:13
          Tagged date : UTC 2010-12-03 09:49:13
    [ 此贴被2dgal管理在2011-05-01 08:27重新编辑 ]
    3楼 - 发表于:2011-05-01 08:41  
    周雪峰
    1级神秘
    A.I.R.nesSub那套有特典,但是是720P的,很难取舍啊。
    4楼 - 发表于:2011-05-01 09:47  
    water_shu
    9级神秘
    看了介绍我是一头雾水,不知道看了动画后会不会更一头雾水
    5楼 - 发表于:2011-05-01 13:22   ( 阿刀已死,有事烧纸 )
    信仰.风
    20级神秘
    Quote:引用第3楼周雪峰于2011-05-01 08:41发表的  :
    A.I.R.nesSub那套有特典,但是是720P的,很难取舍啊。

    那么下了这版,再把特典另下好了
    6楼 - 发表于:2011-05-02 08:38  
    skybleach
    0级神秘
    发现1080P ,果断下载.
    男主最后爆气太强了!
    7楼 - 发表于:2011-05-11 14:21  
    顶顶  lz提供免费的一定要顶
     
    更新版本 v140720 (制作名单) ( 执行用时:Total 0.071629(s) query 9, )
    联系方式(邮箱):xinyangfeng0207@msn.com (申诉、咨询、合作、报错、版权内容处理等)
    本站没有任何形式的官方网店和实体店,也没有任何RMB购买和充值业务,同时并不存在销售伙伴和合作销售行为,请勿上当受骗。