神秘盒子
现在可以抽取
道具卡片
现在可以抽取
点击:-  |  回复数:0  |  发表时间:2011-10-05 17:03  |  收藏本帖
楼主 - 发表于:2011-10-05 17:03   ( 玩不动KFOL了 )
123
夏目贵志生来拥有强大的灵力,能感知平常人所无法接触的妖怪神明的存在。 
因其父母双亡,多年间辗转于互相推卸责任的亲戚之间,同时被其能力影响,受到同龄人的欺负,未曾与任何人深交,造成性格一定程度上的孤僻。本性和善,宽厚,踏实,对于自己经历的不幸,无论人类还是妖怪都未曾怨恨过。被善良的藤原夫妇收养后踏入高中。一次被妖怪追赶的时候打破了一只强大妖怪“斑”的封印,继而牵涉到夏目贵志的祖母的遗物“友人帐”——一本记录着众多妖怪名字的契约书。对友人帐产生兴趣的“斑”与贵志定下约定,自己作为保镖保护其一生以替换友人帐的所有权,平日则化身成大头招财猫模样的“猫咪老师”。在猫咪老师的陪伴以及小镇周遭和谐氛围的包怀下,夏目贵志经历过一个个奇异、悲伤、怀念、令人感动的怪诞故事,逐渐学会与人类、妖怪友好相处,写出一段段充满人性哲理的温馨物语。



此帖售价 1 KFB,已有 37 人购买 购买后可见本内容


K:\临时\7新\已看\[SOSG][Natsume_Yuujinchou_San]\[SOSG][Natsume_Yuujinchou_San][08][GB][X264_AAC][720p][HDTV].mp4
  General
    Complete name : K:\临时\7新\已看\[SOSG][Natsume_Yuujinchou_San]\[SOSG][Natsume_Yuujinchou_San][08][GB][X264_AAC][720p][HDTV].mp4
    Format : MPEG-4
    Format profile : Base Media
    Codec ID : isom
    File size : 119 MiB
    Duration : 24mn 40s
    Overall bit rate : 673 Kbps
    Encoded date : UTC 2011-08-26 11:41:53
    Tagged date : UTC 2011-08-26 11:41:53
  Video #1
    ID : 1
    Format : AVC
    Format/Info : Advanced Video Codec
    Format profile : High@L3.1
    Format settings, CABAC : Yes
    Format settings, ReFrames : 5 frames
    Codec ID : avc1
    Codec ID/Info : Advanced Video Coding
    Duration : 24mn 39s
    Bit rate : 573 Kbps
    Maximum bit rate : 3 233 Kbps
    Width : 1 280 pixels
    Height : 720 pixels
    Display aspect ratio : 16:9
    Frame rate mode : Constant
    Frame rate : 23.976 fps
    Color space : YUV
    Chroma subsampling : 4:2:0
    Bit depth : 8 bits
    Scan type : Progressive
    Bits/(Pixel*Frame) : 0.026
    Stream size : 101 MiB (85%)
    Writing library : x264 core 116 r2057 0ba8a9c
    Encoding settings : cabac=1 / ref=5 / deblock=1:-1:-1 / analyse=0x3:0x113 / me=umh / subme=11 / psy=1 / psy_rd=0.30:0.00 / mixed_ref=1 / me_range=32 / chroma_me=1 / trellis=2 / 8x8dct=1 / cqm=0 / deadzone=21,11 / fast_pskip=0 / chroma_qp_offset=-2 / threads=24 / sliced_threads=0 / nr=0 / decimate=1 / interlaced=0 / bluray_compat=0 / constrained_intra=0 / bframes=8 / b_pyramid=2 / b_adapt=2 / b_bias=0 / direct=1 / weightb=1 / open_gop=0 / weightp=0 / keyint=240 / keyint_min=23 / scenecut=40 / intra_refresh=0 / rc_lookahead=85 / rc=crf / mbtree=1 / crf=23.0 / qcomp=0.60 / qpmin=10 / qpmax=51 / qpstep=4 / vbv_maxrate=10000 / vbv_bufsize=10000 / crf_max=0.0 / nal_hrd=none / ip_ratio=1.40 / aq=2:1.00
    Encoded date : UTC 2011-08-26 11:41:53
    Tagged date : UTC 2011-08-26 11:42:01
  Audio #2
    ID : 2
    Format : AAC
    Format/Info : Advanced Audio Codec
    Format profile : LC
    Codec ID : 40
    Duration : 24mn 40s
    Bit rate mode : Variable
    Bit rate : 96.0 Kbps
    Maximum bit rate : 115 Kbps
    Channel(s) : 2 channels
    Channel positions : Front: L R
    Sampling rate : 48.0 KHz
    Compression mode : Lossy
    Stream size : 16.9 MiB (14%)
    Encoded date : UTC 2011-08-26 11:42:01
    Tagged date : UTC 2011-08-26 11:42:01
  Menu
    00:00:00.000 : Beginning
    00:00:00.042 : OP
    00:01:39.975 : Part-A
    00:12:54.941 : Part-B
    00:22:39.900 : ED
    00:24:09.907 : Next
本帖最近评分记录
  • KFB:+141(無心の魔術師) 帖子奖励
  •  
    更新版本 v140720 (制作名单) ( 执行用时:Total 0.018812(s) query 9, )
    联系方式(邮箱):xinyangfeng0207@msn.com (申诉、咨询、合作、报错、版权内容处理等)
    本站没有任何形式的官方网店和实体店,也没有任何RMB购买和充值业务,同时并不存在销售伙伴和合作销售行为,请勿上当受骗。